2.Broke.Girls.S06E12.FASTSUB.VOSTFR.720p.HDTV.x264-ARK01 URL Raccourcie


2 Broke Girls S06E12 VOSTFR 720p





Origine de la série : Américaine
Réalisateur(s) : Michael Patrick King, Whitney Cummings
Acteurs : Kat Dennings, Beth Behrs, Matthew Moy
Genre : Comédie
Note : 4.1
Fiche allociné : 2 Broke Girls



Max est une serveuse un peu désabusée qui n'a jamais eu beaucoup d'argent mais assez de malice pour s'en sortir dans la vie. Caroline est une fille à papa d'apparence superficielle, qui se retrouve du jour au lendemain sans un sou mais qui reste optimiste. Ce drôle de duo va alors devoir travailler ensemble et partager un appartement pour le meilleur et pour le pire, en attendant de réaliser leurs rêves...



Qualité : HDTV 720p
Format : MKV
Langue :
Sous-titres :
Codec vidéo : x264
Codec audio : AC3 5.1

.:: Release ::.
2.Broke.Girls.S06E12.FASTSUB.VOSTFR.720p.HDTV.x264-ARK01


Total du post : 489 Mo


LIENS DE TÉLÉCHARGEMENT

Télécharger 2.Broke.Girls.S06E12.FASTSUB.VOSTFR.720p.HDTV.x264-ARK01 URL Raccourcie gratuitement

Cliquez ici pour télécharger la version FRANCAISE



TÉLÉCHARGER 2.Broke.Girls.S06E12.FASTSUB.VOSTFR.720p.HDTV.x264-ARK01 AVEC USENET (ANONYME&RAPIDE) 14 jours gratuits

↓↓↓ 2.Broke.Girls.S06E12.FASTSUB.VOSTFR.720p.HDTV.x264-ARK01 ↓↓↓
 
Seeders 52 Leechers 0 Téléchargements 409
 
Télécharger Dire merci! Signaler
Voir la liste des membres qui vous remercient
↑↑↑ 2.Broke.Girls.S06E12.FASTSUB.VOSTFR.720p.HDTV.x264-ARK01 ↑↑↑

Informations

Nom 2.Broke.Girls.S06E12.FASTSUB.VOSTFR.720p.HDTV.x264-ARK01
Torrent 2.Broke.Girls.S06E12.FASTSUB.VOSTFR.720p.HDTV.x264-ARK01.mkv.torrent
Catégorie Série TV
Taille totale 489.45 MB
Info Hash 06ee614e84a013f6af4569979246a11c64156562
Uploadé par Arkhos01
Uploadé le 2017-01-11 16:04:24 (+00:00)
Visites 766
évaluation 5/5 (4 votes)

Liste des Fichiers

Path Size
2.Broke.Girls.S06E12.FASTSUB.VOSTFR.720p.HDTV.x264-ARK01.mkv 489.45 MB

Voir le NFO

General
Complete name               : 2.Broke.Girls.S06E12.FASTSUB.VOSTFR.720p.HDTV.x264-ARK01.mkv
Format                      : Matroska
Format version              : Version 4 / Version 2
File size                   : 489 MiB
Duration                    : 21mn 25s
Overall bit rate            : 3 194 Kbps
Encoded date                : UTC 2017-01-11 16:01:47
Writing application         : mkvmerge v8.3.0 ('Over the Horizon') 64bit
Writing library             : libebml v1.3.1 + libmatroska v1.4.2

Video
ID                          : 1
Format                      : AVC
Format/Info                 : Advanced Video Codec
Format profile              : [email protected]
Format settings, CABAC      : Yes
Format settings, ReFrames   : 8 frames
Codec ID                    : V_MPEG4/ISO/AVC
Duration                    : 21mn 25s
Bit rate                    : 2 746 Kbps
Width                       : 1 280 pixels
Height                      : 720 pixels
Display aspect ratio        : 16:9
Frame rate mode             : Constant
Frame rate                  : 23.976 fps
Color space                 : YUV
Chroma subsampling          : 4:2:0
Bit depth                   : 8 bits
Scan type                   : Progressive
Bits/(Pixel*Frame)          : 0.124
Stream size                 : 421 MiB (86%)
Writing library             : x264 core 148 r2721 72d53ab
Language                    : English
Default                     : Yes
Forced                      : No

Audio
ID                          : 2
Format                      : AC-3
Format/Info                 : Audio Coding 3
Mode extension              : CM (complete main)
Format settings, Endianness : Big
Codec ID                    : A_AC3
Duration                    : 21mn 25s
Bit rate mode               : Constant
Bit rate                    : 384 Kbps
Channel(s)                  : 6 channels
Channel positions           : Front: L C R, Side: L R, LFE
Sampling rate               : 48.0 KHz
Compression mode            : Lossy
Delay relative to video     : 20ms
Stream size                 : 58.8 MiB (12%)
Language                    : English
Default                     : Yes
Forced                      : No

Text #1
ID                          : 3
Format                      : UTF-8
Codec ID                    : S_TEXT/UTF8
Codec ID/Info               : UTF-8 Plain Text
Language                    : French
Default                     : Yes
Forced                      : No

Text #2
ID                          : 4
Format                      : UTF-8
Codec ID                    : S_TEXT/UTF8
Codec ID/Info               : UTF-8 Plain Text
Language                    : English
Default                     : No
Forced                      : No

Sources : DIMENSION - Addic7ed

Ajouter un commentaire

 
Loading...