2.Broke.Girls.S06E12.FASTSUB.VOSTFR.HDTV.x264-ARK01 URL Raccourcie


2 Broke Girls S06E12 VOSTFR





Origine de la série : Américaine
Réalisateur(s) : Michael Patrick King, Whitney Cummings
Acteurs : Kat Dennings, Beth Behrs, Matthew Moy
Genre : Comédie
Note : 4.1
Fiche allociné : 2 Broke Girls



Max est une serveuse un peu désabusée qui n'a jamais eu beaucoup d'argent mais assez de malice pour s'en sortir dans la vie. Caroline est une fille à papa d'apparence superficielle, qui se retrouve du jour au lendemain sans un sou mais qui reste optimiste. Ce drôle de duo va alors devoir travailler ensemble et partager un appartement pour le meilleur et pour le pire, en attendant de réaliser leurs rêves...



Qualité : HDTV
Format : Mpeg4
Langue :
Sous-titres :
Codec vidéo : x264
Codec audio : AAC

.:: Release ::.
2.Broke.Girls.S06E12.FASTSUB.VOSTFR.HDTV.x264-ARK01


Total du post : 220 Mo


LIENS DE TÉLÉCHARGEMENT

Télécharger 2.Broke.Girls.S06E12.FASTSUB.VOSTFR.HDTV.x264-ARK01 URL Raccourcie gratuitement

Cliquez ici pour télécharger la version FRANCAISE



TÉLÉCHARGER 2.Broke.Girls.S06E12.FASTSUB.VOSTFR.HDTV.x264-ARK01 AVEC USENET (ANONYME&RAPIDE) 14 jours gratuits

↓↓↓ 2.Broke.Girls.S06E12.FASTSUB.VOSTFR.HDTV.x264-ARK01 ↓↓↓
 
Seeders 109 Leechers 0 Téléchargements 417
 
Télécharger Dire merci! Signaler
Voir la liste des membres qui vous remercient
↑↑↑ 2.Broke.Girls.S06E12.FASTSUB.VOSTFR.HDTV.x264-ARK01 ↑↑↑

Informations

Nom 2.Broke.Girls.S06E12.FASTSUB.VOSTFR.HDTV.x264-ARK01
Torrent 2.Broke.Girls.S06E12.FASTSUB.VOSTFR.HDTV.x264-ARK01.mp4.torrent
Catégorie Série TV
Taille totale 220.31 MB
Info Hash f74596ac2cd7ca9e2d8d4eead49860a44f23ee3e
Uploadé par Arkhos01
Uploadé le 2017-01-11 16:13:58 (+00:00)
Visites 786
évaluation 5/5 (6 votes)

Liste des Fichiers

Path Size
2.Broke.Girls.S06E12.FASTSUB.VOSTFR.HDTV.x264-ARK01.mp4 220.31 MB

Voir le NFO

General
Complete name               : 2.Broke.Girls.S06E12.FASTSUB.VOSTFR.HDTV.x264-ARK01.mp4
Format                      : MPEG-4
Format profile              : Base Media
Codec ID                    : isom
File size                   : 220 MiB
Duration                    : 21mn 25s
Overall bit rate mode       : Variable
Overall bit rate            : 1 438 Kbps
Encoded date                : UTC 2017-01-11 16:12:36
Tagged date                 : UTC 2017-01-11 16:12:36

Video
ID                          : 1
Format                      : AVC
Format/Info                 : Advanced Video Codec
Format profile              : [email protected]
Format settings, CABAC      : Yes
Format settings, ReFrames   : 5 frames
Codec ID                    : avc1
Codec ID/Info               : Advanced Video Coding
Duration                    : 21mn 25s
Bit rate                    : 1 302 Kbps
Maximum bit rate            : 4 885 Kbps
Width                       : 720 pixels
Height                      : 404 pixels
Display aspect ratio        : 16:9
Frame rate mode             : Constant
Frame rate                  : 23.976 fps
Color space                 : YUV
Chroma subsampling          : 4:2:0
Bit depth                   : 8 bits
Scan type                   : Progressive
Bits/(Pixel*Frame)          : 0.187
Stream size                 : 199 MiB (91%)
Writing library             : x264 core 148 r2744 b97ae06
Encoded date                : UTC 2017-01-11 16:12:36
Tagged date                 : UTC 2017-01-11 16:12:39
Color range                 : Limited
Matrix coefficients         : BT.709

Audio
ID                          : 2
Format                      : AAC
Format/Info                 : Advanced Audio Codec
Format profile              : LC
Codec ID                    : 40
Duration                    : 21mn 25s
Bit rate mode               : Variable
Bit rate                    : 132 Kbps
Maximum bit rate            : 160 Kbps
Channel(s)                  : 2 channels
Channel positions           : Front: L R
Sampling rate               : 48.0 KHz
Compression mode            : Lossy
Stream size                 : 20.2 MiB (9%)
Encoded date                : UTC 2017-01-11 16:05:04
Tagged date                 : UTC 2017-01-11 16:12:39

Sources : DIMENSION - Addic7ed

Ajouter un commentaire

TatooDog ↑ 5.93 TB ↓ 1.29 TB Ratio: 4,59

merci beaucoup !

gregb31 ↑ 53.21 TB ↓ 7.45 TB Ratio: 7,14

Good Job comme tjs et Merci

Tu l'as sens ma Grosse SeedBox ?

 
Loading...