Coin.Heist.2017.FRENCH.WEBRiP.XviD-ZT URL Raccourcie


Coin Heist





Origine : U.S.A.
Réalisateur : Emily Hagins
Acteurs : Sasha Pieterse, Alex Saxon, Blanche Baker, David W. Thompson, Alexis G. Zall
Genre : Comédie
Durée : 1h 37min
Année de production : 2017
Titre original : Coin Heist
Plus d'information sur allocine : http://www.allocine.fr/film/fichefilm_gen_cfilm=252293.html



Pour sauver leur école, quatre ados et héros improbables transgressent règles et lois afin de réussir un exploit épique.



Qualité : WEBRIP
Format : Avi
Langue : True French
Codec vidéo : AVC/H264 à 871kbps
Codec audio : MP3 à 128kbps



Taille totale : 704 Mo


LIENS DE TÉLÉCHARGEMENT

Télécharger Coin.Heist.2017.FRENCH.WEBRiP.XviD-ZT URL Raccourcie gratuitement

Cliquez ici pour télécharger la version FRANCAISE



TÉLÉCHARGER Coin.Heist.2017.FRENCH.WEBRiP.XviD-ZT AVEC USENET (ANONYME&RAPIDE) 14 jours gratuits

↓↓↓ Coin.Heist.2017.FRENCH.WEBRiP.XviD-ZT ↓↓↓
 
Seeders 78 Leechers 0 Téléchargements 795
 
Télécharger Dire merci! Signaler
Voir la liste des membres qui vous remercient
↑↑↑ Coin.Heist.2017.FRENCH.WEBRiP.XviD-ZT ↑↑↑

Informations

Nom Coin.Heist.2017.FRENCH.WEBRiP.XviD-ZT
Torrent Coin.Heist.2017.FRENCH.WEBRiP.XviD-ZT.avi.torrent
Catégorie Film
Taille totale 703.52 MB
Info Hash 3271522745f8aee7116ec9290f684dfd4c9a1adc
Uploadé par IAmALostBoy
Uploadé le 2017-01-11 19:07:56 (+00:00)
Visites 1065
évaluation 4.6/5 (17 votes)

Liste des Fichiers

Path Size
Coin.Heist.2017.FRENCH.WEBRiP.XviD-ZT.avi 703.52 MB

Voir le NFO

General
Complete name                            : Coin.Heist.2017.FRENCH.WEBRiP.XviD-ZT.avi
Format                                   : AVI
Format/Info                              : Audio Video Interleave
File size                                : 704 MiB
Duration                                 : 1h 37mn
Overall bit rate                         : 1 011 Kbps
Movie name                               : Coin.Heist.2017.FRENCH.720p.WEBRiP.x264-KiRa
Writing application                      : Lavf56.15.100

Video
ID                                       : 0
Format                                   : xvid
Codec ID                                 : xvid
Duration                                 : 1h 37mn
Bit rate                                 : 871 Kbps
Width                                    : 720 pixels
Height                                   : 390 pixels
Display aspect ratio                     : 1.85:1
Frame rate                               : 23.976 fps
Bits/(Pixel*Frame)                       : 0.129
Stream size                              : 606 MiB (86%)

Audio
ID                                       : 1
Format                                   : MPEG Audio
Format version                           : Version 1
Format profile                           : Layer 3
Mode                                     : Joint stereo
Mode extension                           : MS Stereo
Codec ID                                 : 55
Codec ID/Hint                            : MP3
Duration                                 : 1h 37mn
Bit rate mode                            : Constant
Bit rate                                 : 128 Kbps
Channel(s)                               : 2 channels
Sampling rate                            : 44.1 KHz
Compression mode                         : Lossy
Stream size                              : 89.1 MiB (13%)
Alignment                                : Aligned on interleaves
Interleave, duration                     : 26 ms (0.63 video frame)
Interleave, preload duration             : 26 ms
Title                                    : Stereo
Writing library                          : LAME3.99.5

Ajouter un commentaire

theo13014 ↑ 7.29 TB ↓ 5.28 TB Ratio: 1,37

merci

zoolander51 ↑ 81.29 GB ↓ 58.37 GB Ratio: 1,39

Possible 720p svp ?

zoolander51 ↑ 81.29 GB ↓ 58.37 GB Ratio: 1,39

Possible 720p svp ?

 
Loading...