Hans Zimmer- Des Mélodies pour Hollywood TV RIP URL Raccourcie


Hans Zimmer- Des Mélodies pour Hollywood - TNT TV  RIP  - Français




Documentaire d'Ariane Riecker et Dirk - Schneider (Allemagne, 2010, 52mn)  De 'Rain man' à 'Inception' en passant par 'Le roi lion', Hans Zimmer a écrit des dizaines de musiques de film.

Enregistrement du 16/03/2011 sur Arte.

Genre : Documentaire
Durée : 52 minutes

Qualité : TNT TV RIP (720x404 16/9)
Taille du fichier : 255 Mo
Codec vidéo : MPEG4 H264
Codec son : Stéréo AAC
Format du fichier: : MP4


LIENS DE TÉLÉCHARGEMENT

Télécharger Hans Zimmer- Des Mélodies pour Hollywood TV RIP URL Raccourcie gratuitement

Cliquez ici pour télécharger la version FRANCAISE



TÉLÉCHARGER Hans Zimmer- Des Mélodies pour Hollywood TV RIP AVEC USENET (ANONYME&RAPIDE) 14 jours gratuits

↓↓↓ Hans Zimmer- Des Mélodies pour Hollywood TV RIP ↓↓↓
 
Seeders 1 Leechers 41 Téléchargements 719
 
Télécharger Dire merci! Signaler
Voir la liste des membres qui vous remercient
↑↑↑ Hans Zimmer- Des Mélodies pour Hollywood TV RIP ↑↑↑

Informations

Nom Hans Zimmer- Des Mélodies pour Hollywood TV RIP
Torrent HanzZimmerDesMelodiesPourHollywood_KaZoF.torrent
Catégorie Documentaire
Taille totale 243.53 MB
Info Hash d3550c16fc53202e071dd607a924c14b4802969c
Uploadé par KaZoF
Uploadé le 2011-09-28 07:56:35 (+00:00)
Visites 1077
évaluation 5/5 (9 votes)

Liste des Fichiers

Path Size
HanzZimmerDesMelodiesPourHollywood_KaZoF.mp4 243.52 MB
HanzZimmerDesMelodiesPourHollywood_KaZoF.nfo 3.33 KB

Voir le NFO

General
Complete name                    : HanzZimmerDesMelodiesPourHollywood_KaZoF.mp4
Format                           : MPEG-4
Format profile                   : Base Media / Version 2
Codec ID                         : mp42
File size                        : 244 MiB
Duration                         : 52mn 28s
Overall bit rate                 : 649 Kbps
Movie name                       : HANS ZIMMER- DES MÉLODIES POUR HOLLYWOOD
Performer                        : HANS ZIMMER- DES MÉLODIES POUR HOLLYWOOD
Genre                            : TV Shows
Recorded date                    : 2011-03-14
Encoded date                     : UTC 2011-09-27 21:22:47
Tagged date                      : UTC 2011-09-27 22:05:24
Writing library                  : app2
Cover                            : Yes
Comment                          : Documentaire d'Ariane Riecker et Dirk - Schneider (Allemagne, 2010, 52mn)
tvsh                             : HANS ZIMMER- DES MÉLODIES POUR HOLLYWOOD
Video
ID                               : 1
Format                           : AVC
Format/Info                      : Advanced Video Codec
Format profile                   : [email protected]
Format settings, CABAC           : No
Format settings, ReFrames        : 2 frames
Codec ID                         : avc1
Codec ID/Info                    : Advanced Video Coding
Duration                         : 52mn 28s
Bit rate mode                    : Variable
Bit rate                         : 514 Kbps
Width                            : 720 pixels
Height                           : 404 pixels
Display aspect ratio             : 16:9
Frame rate mode                  : Constant
Frame rate                       : 25.000 fps
Standard                         : PAL
Color space                      : YUV
Chroma subsampling               : 4:2:0
Bit depth                        : 8 bits
Scan type                        : Progressive
Bits/(Pixel*Frame)               : 0.071
Stream size                      : 193 MiB (79%)
Title                            : Module de gestion vid
Encoded date                     : UTC 2011-09-27 22:01:52
Tagged date                      : UTC 2011-09-27 22:05:24
Color primaries                  : BT.601-6 525, BT.1358 525, BT.1700 NTSC, SMPTE 170M
Transfer characteristics         : BT.709-5, BT.1361
Matrix coefficients              : BT.601-6 525, BT.1358 525, BT.1700 NTSC, SMPTE 170M

Audio
ID                               : 2
Format                           : AAC
Format/Info                      : Advanced Audio Codec
Format profile                   : LC
Codec ID                         : 40
Duration                         : 52mn 28s
Bit rate mode                    : Constant
Bit rate                         : 128 Kbps
Channel(s)                       : 2 channels
Channel positions                : Front: L R
Sampling rate                    : 48.0 KHz
Compression mode                 : Lossy
Stream size                      : 47.0 MiB (19%)
Title                            : Module de gestion sonore


Text
ID                               : 3
Format                           : Timed text
Codec ID                         : tx3g
Duration                         : 52mn 28s
Bit rate mode                    : Variable
Bit rate                         : 1 bps
Stream size                      : 261 Bytes (0%)
Title                            : Module de gestion Texte

Ajouter un commentaire

Boss74 ↑ 1.83 TB ↓ 1.03 TB Ratio: 1,77

Bonjour

Je viens de le mettre en seed.

JonPieFerJou ↑ 18.73 GB ↓ 14.24 GB Ratio: 1,31

Merci du partage

mmaniaque

Bonjour,

Je viens de télécharger ce torrent pour me mettre en seed, bon téléchargement.

Cordialement

Josimega ↑ 20.64 GB ↓ 5.22 GB Ratio: 3,95

De même. Manque de seed pour le NFO.

darkdroid93 ↑ 4.76 TB ↓ 3.1 TB Ratio: 1,53

Restez en seed svp bloqué à 99,98%

bradoly5 ↑ 2.46 TB ↓ 1.29 TB Ratio: 1,91

hans zimmer un Genie !!!!

MozartL ↑ 1.53 TB ↓ 1.08 TB Ratio: 1,42

Merci ! Très intéressant, étant moi-même compositeur

Starbeck

Merci bien.

nosurprises ↑ 746.3 GB ↓ 592.43 GB Ratio: 1,25

merci !

Oliwen ↑ 32.62 TB ↓ 1.73 TB Ratio: 18,83

Merci, ce personnage restait assez mystérieux pour moi. J'espère en apprendre un peu plus sur lui

 
Loading...