Heavy Object BD Remux URL Raccourcie


.: Heavy Object :.









Auteur(s) : Kazuma Kamachi
Studios : [SANZIGEN ANIMATION STUDIO] [MAGIC CAPSULE] [J.C. STAFF]
Type : Série
Genre : Action, Cyber & Mecha, Espace & Sci-Fiction
Année de production : 2015
Nbr d'épisodes : 24





Dans le futur, le visage de la guerre a changé avec l’apparition des Heavy Object, des forteresses mobiles de centaine de milliers de tonnes et de plus de 70 m de haut pouvant résister à une explosion nucléaire et ayant une puissance de feu pouvant balayer des armées conventionnelles. Le monde divisé en quatre alliances règle désormais ses conflits territoriaux par des duels entre ces engins. Mais trois jeunes personnes travaillant en Alaska feront changer ce nouveau statut quo en affrontant un de ces engins après avoir perdu leur Object.





Qualité : Blu-Ray 1080p
Format : MKV
Langues : Japonais(DTS-HD MA 2.1)
Sous-titres : Français
Nombre de fichiers : 24
Taille totale : 103 Go




LIENS DE TÉLÉCHARGEMENT

Télécharger Heavy Object BD Remux URL Raccourcie gratuitement

Cliquez ici pour télécharger la version FRANCAISE



TÉLÉCHARGER Heavy Object BD Remux AVEC USENET (ANONYME&RAPIDE) 14 jours gratuits

↓↓↓ Heavy Object BD Remux ↓↓↓
 
Seeders 6 Leechers 0 Téléchargements 13
 
Télécharger Dire merci! Signaler
Voir la liste des membres qui vous remercient
↑↑↑ Heavy Object BD Remux ↑↑↑

Informations

Nom Heavy Object BD Remux
Torrent Heavy Object.torrent
Catégorie Animation Série
Taille totale 103.51 GB
Info Hash c9aeed07bbd824904b7f09a8f4ee39fcc18f6612
Uploadé par giasof
Uploadé le 2017-01-08 14:59:31 (+00:00)
Visites 45
évaluation 5/5 (2 votes)

Liste des Fichiers

Path Size
Heavy Object/Heavy Object 12.mkv 4.72 GB
Heavy Object/Heavy Object 01.mkv 4.71 GB
Heavy Object/Heavy Object 18.mkv 4.65 GB
Heavy Object/Heavy Object 13.mkv 4.61 GB
Heavy Object/Heavy Object 11.mkv 4.57 GB
Heavy Object/Heavy Object 04.mkv 4.56 GB
Heavy Object/Heavy Object 05.mkv 4.54 GB
Heavy Object/Heavy Object 23.mkv 4.52 GB
Heavy Object/Heavy Object 22.mkv 4.46 GB
Heavy Object/Heavy Object 08.mkv 4.45 GB
Heavy Object/Heavy Object 20.mkv 4.43 GB
Heavy Object/Heavy Object 15.mkv 4.39 GB
Heavy Object/Heavy Object 14.mkv 4.38 GB
Heavy Object/Heavy Object 10.mkv 4.31 GB
Heavy Object/Heavy Object 02.mkv 4.25 GB
Heavy Object/Heavy Object 09.mkv 4.24 GB
Heavy Object/Heavy Object 21.mkv 4.21 GB
Heavy Object/Heavy Object 19.mkv 4.2 GB
Heavy Object/Heavy Object 03.mkv 3.99 GB
Heavy Object/Heavy Object 06.mkv 3.97 GB
Heavy Object/Heavy Object 24.mkv 3.94 GB
Heavy Object/Heavy Object 17.mkv 3.93 GB
Heavy Object/Heavy Object 16.mkv 3.84 GB
Heavy Object/Heavy Object 07.mkv 3.61 GB

Voir le NFO

 ■General

Unique ID                   : 227708937310313692552850743940626312724 (0xAB4F25669DD0421DB89E9AE108F8EE14)

Complete name               : F:\Videos\Heavy Object\Heavy Object 01.mkv

Format                      : Matroska

Format version              : Version 4 / Version 2

File size                   : 4.71 GiB

Duration                    : 23 min 41 s

Overall bit rate mode       : Variable

Overall bit rate            : 28.5 Mb/s

Movie name                  : Heavy Object 01

Encoded date                : UTC 2016-11-26 22:27:17

Writing application         : mkvmerge v9.5.0 ('Quiet Fire') 64bit

Writing library             : libebml v1.3.4 + libmatroska v1.4.5



Video

ID                          : 1

Format                      : AVC

Format/Info                 : Advanced Video Codec

Format profile              : High@L4.1

Format settings, CABAC      : Yes

Format settings, ReFrames   : 3 frames

Format settings, GOP        : M=3, N=12

Codec ID                    : V_MPEG4/ISO/AVC

Duration                    : 23 min 40 s

Bit rate mode               : Variable

Bit rate                    : 26.3 Mb/s

Maximum bit rate            : 35.0 Mb/s

Width                       : 1 920 pixels

Height                      : 1 080 pixels

Display aspect ratio        : 16:9

Frame rate mode             : Constant

Frame rate                  : 23.976 (24000/1001) FPS

Standard                    : NTSC

Color space                 : YUV

Chroma subsampling          : 4:2:0

Bit depth                   : 8 bits

Scan type                   : Progressive

Bits/(Pixel*Frame)          : 0.528

Stream size                 : 4.34 GiB (92%)

Default                     : Yes

Forced                      : No

Color range                 : Limited

Color primaries             : BT.709

Transfer characteristics    : BT.709

Matrix coefficients         : BT.709



Audio

ID                          : 2

Format                      : DTS

Format/Info                 : Digital Theater Systems

Format profile              : MA / Core

Mode                        : 16

Format settings, Endianness : Big

Codec ID                    : A_DTS

Duration                    : 23 min 41 s

Bit rate mode               : Variable / Constant

Bit rate                    : 2 186 kb/s / 1 509 kb/s

Channel(s)                  : 3 channels

Channel positions           : Front: L R, LFE

Sampling rate               : 48.0 kHz

Frame rate                  : 93.750 FPS (512 spf)

Bit depth                   : 24 bits

Compression mode            : Lossless / Lossy

Stream size                 : 370 MiB (8%)

Title                       : Japonais DTS-HD MA 2.1

Language                    : Japanese

Default                     : Yes

Forced                      : No



Text

ID                          : 3

Format                      : PGS

Codec ID                    : S_HDMV/PGS

Codec ID/Info               : Picture based subtitle format used on BDs/HD-DVDs

Duration                    : 23 min 35 s

Bit rate                    : 27.3 kb/s

Count of elements           : 628

Stream size                 : 4.61 MiB (0%)

Title                       : Franτais PGS

Language                    : French

Default                     : Yes

Forced                      : No



Menu

00:00:00.000                : en:(01)00:00:00:000

00:00:47.547                : en:(02)00:00:47:547

00:04:33.147                : en:(03)00:04:33:147

00:12:55.149                : en:(04)00:12:55:149

00:22:00.068                : en:(05)00:22:00:068

00:23:30.158                : en:(06)00:23:30:158



Ajouter un commentaire

shanakrast ↑ 341.59 GB ↓ 213.35 GB Ratio: 1,60

Ca c'es ce que j'appelle du torrent x) ca va me prendre 3 ans a télécharger mais mon dieux ca vos le coup ( ayant vu en stream sa déboite)

Notak I'm watching you ↑ 19.26 TB ↓ 1.54 TB Ratio: 12,54

C'est rare les full blu ray et pourtant c'est indispensable pour pouvoir faire des réencodages de qualité. Merci pour cet up

giasof ↑ 18.77 TB ↓ 4.64 TB Ratio: 4,04

En même temps, si il y a écrit "remux" dans le titre, c'est pas pour rien^^

Edosak

100 GO! C'est pour tricher sur le ratio une telle taille?

Mokay24 ↑ 1.81 TB ↓ 1.78 TB Ratio: 1,01

Plus gros Pls !!!
J'prends pas en dessous de 200gb

BigBrowww

C'est plutôt un, Heavy Object

BigBrowww

C'est plutôt un, Heavy Object

faflarage40 ↑ 181 GB ↓ 181.37 GB Ratio: 0,99

une version un peut plus light please ( moins de 2 gb l'épisode quoi)

Betag1914 ↑ 105.98 GB ↓ 80.3 GB Ratio: 1,31

mais lol...

 
Loading...