[Kaerizaki-Fansub] Boruto - OAV- Le jour ou Naruto est devenu Hokage VOSTFR Version BLU-RAY SD URL Raccourcie


(¯`·._.· [Kaerizaki-Fansub] Boruto - OAV- Le jour ou Naruto est devenu Hokage VOSTFR Version BLU-RAY SD ·._.·´¯ )





Auteur(s) : Masashi Kishimoto
Editeur(s) : Hiroyuki Yamashita
Episode(s) : OAV
Studio(s) : Pierrot
Genre : ACTION / COMéDIE / FANTASTIQUE
Titre de l'épisode : Boruto - Naruto The Movie Spécial OAV
Le Jour Où Naruto Est Devenue Hokage !
Date de diffusion : 06 Juillet 2016



L’histoire suit les aventures de l’audacieux Boruto, l’intelligente Sarada et l’énigmatique Mitsuki, des apprentis ninjas du village de Konoha.

Boruto, le fils de Naruto, se sent complètement délaissé. Depuis que Naruto est devenu le 7e Hogake, ce dernier est très occupé.

Au delà de ça, Boruto souhaite surpasser son père qui est un héros. Il va alors tout faire pour devenir l’apprenti de Sasuke, le légendaire rival de Naruto et père de Sarada.

Mais leur quotidien est bouleversé avec l’attaque surprise de Momoshiki et Kinshiki, 2 dangereux guerriers qui s’en prennent à Naruto…




Qualité : 850 x 458 pixels (Version SD)
Format : Mpeg-4
Langue : 
Sous-titre : 
Team : Kaerizaki Fansub
Taille du fichier : 67 MO
Taille total : 67 MO


SVP Restez en seed sur les torrents afin de faire partager à tous les fans. Merci


LIENS DE TÉLÉCHARGEMENT

Télécharger [Kaerizaki-Fansub] Boruto - OAV- Le jour ou Naruto est devenu Hokage VOSTFR Version BLU-RAY SD URL Raccourcie gratuitement

Cliquez ici pour télécharger la version FRANCAISE



TÉLÉCHARGER [Kaerizaki-Fansub] Boruto - OAV- Le jour ou Naruto est devenu Hokage VOSTFR Version BLU-RAY SD AVEC USENET (ANONYME&RAPIDE) 14 jours gratuits

↓↓↓ [Kaerizaki-Fansub] Boruto - OAV- Le jour ou Naruto est devenu Hokage VOSTFR Version BLU-RAY SD ↓↓↓
 
Seeders 9 Leechers 0 Téléchargements 53
 
Télécharger Dire merci! Signaler
Voir la liste des membres qui vous remercient
↑↑↑ [Kaerizaki-Fansub] Boruto - OAV- Le jour ou Naruto est devenu Hokage VOSTFR Version BLU-RAY SD ↑↑↑

Informations

Nom [Kaerizaki-Fansub] Boruto - OAV- Le jour ou Naruto est devenu Hokage VOSTFR Version BLU-RAY SD
Torrent [Kaerizaki-Fansub] Boruto - OAV - Le jour ou Naruto est devenu Hokage VOSTFR BLU-RAY SD (850x458).mp4.torrent
Catégorie Animation Série
Taille totale 67.2 MB
Info Hash 09d8d54f1c0282340f520be86c87334ab68da729
Uploadé par Kaerizaki-Fansub
Uploadé le 2016-12-22 14:40:36 (+00:00)
Visites 74
évaluation 5/5 (2 votes)

Liste des Fichiers

Path Size
[Kaerizaki-Fansub] Boruto - OAV - Le jour ou Naruto est devenu Hokage VOSTFR BLU-RAY SD (850x458).mp4 67.2 MB

Voir le NFO

General
Complete name                            : [Kaerizaki-Fansub] Boruto - OAV - Le jour ou Naruto est devenu Hokage VOSTFR BLU-RAY SD (850x458).mp4
Format                                   : MPEG-4
Format profile                           : Base Media
Codec ID                                 : isom
File size                                : 67.2 MiB
Duration                                 : 10mn 26s
Overall bit rate mode                    : Variable
Overall bit rate                         : 900 Kbps
Encoded date                             : UTC 2016-12-21 04:30:58
Tagged date                              : UTC 2016-12-21 04:30:58

Video
ID                                       : 1
Format                                   : AVC
Format/Info                              : Advanced Video Codec
Format profile                           : [email protected]
Format settings, CABAC                   : Yes
Format settings, ReFrames                : 5 frames
Codec ID                                 : avc1
Codec ID/Info                            : Advanced Video Coding
Duration                                 : 10mn 26s
Bit rate                                 : 741 Kbps
Maximum bit rate                         : 5 371 Kbps
Width                                    : 850 pixels
Height                                   : 458 pixels
Display aspect ratio                     : 1.85:1
Frame rate mode                          : Constant
Frame rate                               : 23.976 fps
Color space                              : YUV
Chroma subsampling                       : 4:2:0
Bit depth                                : 8 bits
Scan type                                : Progressive
Bits/(Pixel*Frame)                       : 0.079
Stream size                              : 55.4 MiB (82%)
Writing library                          : x264 core 148 r2638 7599210
Encoding settings                        : cabac=1 / ref=6 / deblock=1:1:1 / analyse=0x3:0x133 / me=hex / subme=7 / psy=1 / psy_rd=0.60:0.00 / mixed_ref=1 / me_range=16 / chroma_me=1 / trellis=1 / 8x8dct=1 / cqm=0 / deadzone=21,11 / fast_pskip=1 / chroma_qp_offset=-2 / threads=12 / lookahead_threads=2 / sliced_threads=0 / nr=0 / decimate=1 / interlaced=0 / bluray_compat=0 / constrained_intra=0 / bframes=6 / b_pyramid=1 / b_adapt=1 / b_bias=0 / direct=1 / weightb=1 / open_gop=0 / weightp=1 / keyint=240 / keyint_min=23 / scenecut=40 / intra_refresh=0 / rc_lookahead=40 / rc=crf / mbtree=1 / crf=15.5 / qcomp=0.60 / qpmin=10 / qpmax=51 / qpstep=4 / vbv_maxrate=300000 / vbv_bufsize=300000 / crf_max=0.0 / nal_hrd=none / filler=0 / ip_ratio=1.40 / aq=1:1.00
Encoded date                             : UTC 2016-12-21 04:30:58
Tagged date                              : UTC 2016-12-21 04:31:00
Color primaries                          : BT.709-5, BT.1361, IEC 61966-2-4, SMPTE RP177
Transfer characteristics                 : BT.709-5, BT.1361
Matrix coefficients                      : BT.709-5, BT.1361, IEC 61966-2-4 709, SMPTE RP177

Audio
ID                                       : 2
Format                                   : AAC
Format/Info                              : Advanced Audio Codec
Format profile                           : LC
Codec ID                                 : 40
Duration                                 : 10mn 26s
Bit rate mode                            : Variable
Bit rate                                 : 154 Kbps
Maximum bit rate                         : 194 Kbps
Channel(s)                               : 2 channels
Channel positions                        : Front: L R
Sampling rate                            : 48.0 KHz
Compression mode                         : Lossy
Delay relative to video                  : -5s 5ms
Stream size                              : 11.5 MiB (17%)
Language                                 : Japanese
Encoded date                             : UTC 2016-12-21 04:25:02
Tagged date                              : UTC 2016-12-21 04:31:00

Menu
00:00:00.000                             : Intro
00:00:30.486                             : Titre Episode
00:00:34.618                             : Part 1
00:05:43.885                             : Part 2
00:08:17.789                             : Epilogue
00:09:28.443                             : Ending

Ajouter un commentaire

supersaurus ↑ 6.97 TB ↓ 2.52 TB Ratio: 2,76

merci pour le partage

BIU

Kaerizaki-Fansub Compte Officiel ↑ 5.92 TB ↓ 62.65 GB Ratio: 96,82

N'hésitez pas à me contacter en cas de problème.
Bon visionnage à tous. ^^


Compte géré par Acool

 
Loading...