[Kaerizaki-Fansub] One-Piece Film Gold episode 0~711 ver VOSTFR Version SD URL Raccourcie


(¯`·._.· [Kaerizaki-Fansub] One-Piece Film Gold episode 0~711 ver VOSTFR Version SD ·._.·´¯ )



Il n'y aura pas de version HD,
vu que l'épisode est seulement sortie en SD.




Auteur(s) : ODA EIICHIROU 
Editeur(s) : Konosuke Uda / Munehisa Sakai
Episode(s) : Spécial Film Gold
Studio(s) : TôEI ANIMATION 
Genre : AVENTURE / FANTASTIQUE & MYTHE / COMéDIE 
Titre de l'épisode : One Piece - Film Gold !
~Episode 0~ 711 ver. !
Date de diffusion : 2016



Une journée d'été à bord du Thousand Sunny.
Profitant du soleil pour s'amuser et faire les dingues comme à leur habitude,
les Mugiwara voguent vers leur nouvelle destination
le navire-casino géant,
également surnommé le "pays des rêves", Grantesoro !




Qualité : 848 x 480 pixels (Version SD)
Format : Mpeg-4
Langue : 
Sous-titre : 
Team : Kaerizaki Fansub
Taille du fichier : 173 MO
Taille total : 173 MO



SVP Restez en seed sur les torrents afin de faire partager à tous les fans. Merci


LIENS DE TÉLÉCHARGEMENT

Télécharger [Kaerizaki-Fansub] One-Piece Film Gold episode 0~711 ver VOSTFR Version SD URL Raccourcie gratuitement

Cliquez ici pour télécharger la version FRANCAISE



TÉLÉCHARGER [Kaerizaki-Fansub] One-Piece Film Gold episode 0~711 ver VOSTFR Version SD AVEC USENET (ANONYME&RAPIDE) 14 jours gratuits

↓↓↓ [Kaerizaki-Fansub] One-Piece Film Gold episode 0~711 ver VOSTFR Version SD ↓↓↓
 
Seeders 132 Leechers 0 Téléchargements 929
 
Télécharger Dire merci! Signaler
Voir la liste des membres qui vous remercient
↑↑↑ [Kaerizaki-Fansub] One-Piece Film Gold episode 0~711 ver VOSTFR Version SD ↑↑↑

Informations

Nom [Kaerizaki-Fansub] One-Piece Film Gold episode 0~711 ver VOSTFR Version SD
Torrent [Kaerizaki-Fansub] One-Piece Film Gold episode 0-711 ver VOSTFR SD (848x480).mp4.torrent
Catégorie Animation Série
Taille totale 172.69 MB
Info Hash 246ce9fc6e69369b67338344844a06c01d3eab35
Uploadé par Kaerizaki-Fansub
Uploadé le 2017-01-04 12:17:27 (+00:00)
Visites 1207
évaluation 4.8/5 (32 votes)

Liste des Fichiers

Path Size
[Kaerizaki-Fansub] One-Piece Film Gold episode 0~711 ver VOSTFR SD (848x480).mp4 172.69 MB

Voir le NFO

General
Complete name                            : [Kaerizaki-Fansub] One-Piece Film Gold episode 0~711 ver VOSTFR SD (848x480).mp4
Format                                   : MPEG-4
Format profile                           : Base Media
Codec ID                                 : isom
File size                                : 173 MiB
Duration                                 : 9mn 57s
Overall bit rate mode                    : Variable
Overall bit rate                         : 2 423 Kbps
Encoded date                             : UTC 2017-01-04 01:41:25
Tagged date                              : UTC 2017-01-04 01:41:25

Video
ID                                       : 1
Format                                   : AVC
Format/Info                              : Advanced Video Codec
Format profile                           : [email protected]
Format settings, CABAC                   : Yes
Format settings, ReFrames                : 5 frames
Codec ID                                 : avc1
Codec ID/Info                            : Advanced Video Coding
Duration                                 : 9mn 57s
Bit rate                                 : 2 251 Kbps
Maximum bit rate                         : 10.8 Mbps
Width                                    : 848 pixels
Height                                   : 480 pixels
Display aspect ratio                     : 16:9
Frame rate mode                          : Constant
Frame rate                               : 23.976 fps
Color space                              : YUV
Chroma subsampling                       : 4:2:0
Bit depth                                : 8 bits
Scan type                                : Progressive
Bits/(Pixel*Frame)                       : 0.231
Stream size                              : 160 MiB (93%)
Writing library                          : x264 core 148 r2638 7599210
Encoding settings                        : cabac=1 / ref=6 / deblock=1:1:1 / analyse=0x3:0x133 / me=hex / subme=7 / psy=1 / psy_rd=0.60:0.00 / mixed_ref=1 / me_range=16 / chroma_me=1 / trellis=1 / 8x8dct=1 / cqm=0 / deadzone=21,11 / fast_pskip=1 / chroma_qp_offset=-2 / threads=12 / lookahead_threads=2 / sliced_threads=0 / nr=0 / decimate=1 / interlaced=0 / bluray_compat=0 / constrained_intra=0 / bframes=6 / b_pyramid=1 / b_adapt=1 / b_bias=0 / direct=1 / weightb=1 / open_gop=0 / weightp=1 / keyint=240 / keyint_min=23 / scenecut=40 / intra_refresh=0 / rc_lookahead=40 / rc=crf / mbtree=1 / crf=15.5 / qcomp=0.60 / qpmin=10 / qpmax=51 / qpstep=4 / vbv_maxrate=300000 / vbv_bufsize=300000 / crf_max=0.0 / nal_hrd=none / filler=0 / ip_ratio=1.40 / aq=1:1.00
Encoded date                             : UTC 2017-01-04 01:41:25
Tagged date                              : UTC 2017-01-04 01:41:27
Color primaries                          : BT.709-5, BT.1361, IEC 61966-2-4, SMPTE RP177
Transfer characteristics                 : BT.709-5, BT.1361
Matrix coefficients                      : BT.709-5, BT.1361, IEC 61966-2-4 709, SMPTE RP177

Audio
ID                                       : 2
Format                                   : AAC
Format/Info                              : Advanced Audio Codec
Format profile                           : LC
Codec ID                                 : 40
Duration                                 : 9mn 57s
Bit rate mode                            : Variable
Bit rate                                 : 168 Kbps
Maximum bit rate                         : 196 Kbps
Channel(s)                               : 2 channels
Channel positions                        : Front: L R
Sampling rate                            : 48.0 KHz
Compression mode                         : Lossy
Delay relative to video                  : -3s 337ms
Stream size                              : 12.0 MiB (7%)
Language                                 : Japanese
Encoded date                             : UTC 2017-01-04 01:34:53
Tagged date                              : UTC 2017-01-04 01:41:27

Ajouter un commentaire

rainmoon44 ↑ 27.05 GB ↓ 16.56 GB Ratio: 1,63

merci infiniment

leomaru ↑ 20.01 GB ↓ 5.9 GB Ratio: 3,39

Merci beaucoup pour cet épisode!

Content d'apprendre que la VOSTFR sera bientôt dispo!

Kaerizaki-Fansub Compte Officiel ↑ 5.95 TB ↓ 62.65 GB Ratio: 97,22

Il n'y aura pas de version HD vu que l'épisode est seulement sortie en SD


Compte géré par Acool

Slipong All I do is win ! ↑ 673.71 GB ↓ 361.47 GB Ratio: 1,86

@Diddy093
Le BluRay est sorti au japon le 28 décembre, du coup il devrait arriver en VOSTFR dans les semaines qui suivent avec un peu de chance.

@Mickawell77
C'est un épisode spécial sorti au Japon sur smartphone et sur YouTube servant de prologue au film.

@bichbou
C'est encore un autre épisode servant également à introduire le film. D'ailleurs il y en a eu plusieurs, plus d'infos ici

Dernière édition par Slipong le 2017-01-06 20:39:37

bichbou ↑ 3.12 TB ↓ 2.9 TB Ratio: 1,07

Cet épisode et pas censé s'appeler Heart of Gold ? Histoire de pas le confondre avec le film?

DarKiller30 ↑ 1.01 TB ↓ 640.46 GB Ratio: 1,60

Il y a un oublie de lettre à 1m55 et une virgule en trop à la phrase qui suit.
Je suppose qu'il y aura une V2 quand il y aura une version HD.
Sinon, merci pour vos subs.


Mes vidéos

drmegateuf ↑ 5.31 TB ↓ 3.8 TB Ratio: 1,39

kaerizaki fansubeur of the universe ne changer rien j'adore !!!

Mickawell77 ↑ 2.26 TB ↓ 985.53 GB Ratio: 2,34

Bonjour, c'est quoi exactement, un épisode préquel à un film ? vu la taille du fichier. Merci au passage à Kaerizaki de nous permettre de suivre one piece un peu plus vite que la version française grâce à ses sous-titres

pgm974 ↑ 12.84 GB ↓ 4.38 GB Ratio: 2,92

Hmm y'aura pas de 720 p?

Kaerizaki-Fansub Compte Officiel ↑ 5.95 TB ↓ 62.65 GB Ratio: 97,22

@Diddy093 On espère oui


Compte géré par Acool

Diddy093 ↑ 40.02 GB ↓ 64.2 GB Ratio: 0,62

Merci

& J'aimerais savoir quand le film Gold arrivera ?? car deja depuis le 2 novembre il est en france donc je suppose que la vostfr arrive pour donc Février c'est sur ?

Kaerizaki-Fansub Compte Officiel ↑ 5.95 TB ↓ 62.65 GB Ratio: 97,22

N'hésitez pas à me contacter en cas de problème.
Bon visionnage à tous. ^^


Compte géré par Acool

 
Loading...