New.Girl.S06E12.FASTSUB.VOSTFR.HDTV.x264-ARK01 URL Raccourcie


New Girl S06E12 VOSTFR





Origine de la série : Américaine
Réalisateur(s) : Elizabeth Meriwether
Acteurs : Zooey Deschanel, Max Greenfield, Jake Johnson
Genre : Comédie
Note : 4.1
Fiche allociné : New Girl



Depuis qu'elle a découvert l'infidélité de son petit ami, Jess, une jeune femme naïve et maladroite, partage un appartement avec trois garçons : Schmidt, Nick et Winston. Cette cohabitation change leur quotidien à tous. Entre leurs déboires sentimentaux respectifs, la petite bande cherche sa place dans le monde.



Qualité : HDTV
Format : Mpeg4
Langue :
Sous-titres : RBTeam
Codec vidéo : x264
Codec audio : AAC

.:: Release ::.
New.Girl.S06E12.FASTSUB.VOSTFR.HDTV.x264-ARK01


Total du post : 157 Mo


LIENS DE TÉLÉCHARGEMENT

Télécharger New.Girl.S06E12.FASTSUB.VOSTFR.HDTV.x264-ARK01 URL Raccourcie gratuitement

Cliquez ici pour télécharger la version FRANCAISE



TÉLÉCHARGER New.Girl.S06E12.FASTSUB.VOSTFR.HDTV.x264-ARK01 AVEC USENET (ANONYME&RAPIDE) 14 jours gratuits

↓↓↓ New.Girl.S06E12.FASTSUB.VOSTFR.HDTV.x264-ARK01 ↓↓↓
 
Seeders 132 Leechers 0 Téléchargements 1387
 
Télécharger Dire merci! Signaler
Voir la liste des membres qui vous remercient
↑↑↑ New.Girl.S06E12.FASTSUB.VOSTFR.HDTV.x264-ARK01 ↑↑↑

Informations

Nom New.Girl.S06E12.FASTSUB.VOSTFR.HDTV.x264-ARK01
Torrent New.Girl.S06E12.FASTSUB.VOSTFR.HDTV.x264-ARK01.mp4.torrent
Catégorie Série TV
Taille totale 157.83 MB
Info Hash e3258f5d354c771ce2858b67a2d11491710b71f2
Uploadé par Arkhos01
Uploadé le 2017-01-11 21:16:33 (+00:00)
Visites 1722
évaluation 4.9/5 (17 votes)

Liste des Fichiers

Path Size
New.Girl.S06E12.FASTSUB.VOSTFR.HDTV.x264-ARK01.mp4 157.83 MB

Voir le NFO

General
Complete name               : New.Girl.S06E12.FASTSUB.VOSTFR.HDTV.x264-ARK01.mp4
Format                      : MPEG-4
Format profile              : Base Media
Codec ID                    : isom
File size                   : 158 MiB
Duration                    : 21mn 35s
Overall bit rate mode       : Variable
Overall bit rate            : 1 022 Kbps
Encoded date                : UTC 2017-01-11 21:14:27
Tagged date                 : UTC 2017-01-11 21:14:27

Video
ID                          : 1
Format                      : AVC
Format/Info                 : Advanced Video Codec
Format profile              : [email protected]
Format settings, CABAC      : Yes
Format settings, ReFrames   : 5 frames
Codec ID                    : avc1
Codec ID/Info               : Advanced Video Coding
Duration                    : 21mn 35s
Bit rate                    : 886 Kbps
Maximum bit rate            : 3 256 Kbps
Width                       : 720 pixels
Height                      : 404 pixels
Display aspect ratio        : 16:9
Frame rate mode             : Constant
Frame rate                  : 23.976 fps
Color space                 : YUV
Chroma subsampling          : 4:2:0
Bit depth                   : 8 bits
Scan type                   : Progressive
Bits/(Pixel*Frame)          : 0.127
Stream size                 : 137 MiB (87%)
Writing library             : x264 core 148 r2744 b97ae06
Encoded date                : UTC 2017-01-11 21:14:27
Tagged date                 : UTC 2017-01-11 21:14:29
Color range                 : Limited
Matrix coefficients         : BT.709

Audio
ID                          : 2
Format                      : AAC
Format/Info                 : Advanced Audio Codec
Format profile              : LC
Codec ID                    : 40
Duration                    : 21mn 35s
Bit rate mode               : Variable
Bit rate                    : 132 Kbps
Maximum bit rate            : 149 Kbps
Channel(s)                  : 2 channels
Channel positions           : Front: L R
Sampling rate               : 48.0 KHz
Compression mode            : Lossy
Stream size                 : 20.4 MiB (13%)
Encoded date                : UTC 2017-01-11 21:06:35
Tagged date                 : UTC 2017-01-11 21:14:29

Sources : AVS - RBTeam

Ajouter un commentaire

momoderennesanim ↑ 10 GB ↓ 5.3 GB Ratio: 1,88

Bonjour cela me met un message comme quoi "le chemin d'accès est introuvable" Est-ce que quelqu'un peut m'aider ? Svp

NOOSVALER ↑ 20.04 GB ↓ 6.89 GB Ratio: 2,90

Excellent je ne le trouvais qu'en non sous-titré en streaming!
Merci beaucoup !!

NOOSVALER ↑ 20.04 GB ↓ 6.89 GB Ratio: 2,90

Excellent je ne le trouvais qu'en non sous-titré en streaming!
Merci beaucoup !!

TatooDog ↑ 6.29 TB ↓ 1.37 TB Ratio: 4,60

merci beaucoup !

 
Loading...