Sousei No Onmyouji 38 VOSTFR 720p URL Raccourcie




Informations sur la série :

Magano est un univers où des abominables monstres nommés "Impurs" y vivent, ou plutôt, y sont entreposés. Cependant, il arrive parfois que ces monstres se faufilent dans le monde des humains et qu'ils prennent possession d'une personne. Pour combattre ces "Impurs", des Onmyôji (exorcistes) sont chargés de purifier ces êtres.

Cette histoire est centrée sur Rokuro Enmadô, un collégien qui aspirait autrefois devenir l'un des meilleurs Onmyôji. Malheureusement, après avoir perdu toute sa famille à l'orphelinat, il décide tout d'un coup d'arrêter d'exorciser les "Impurs". Actuellement, il passe ses journées en cours en se faisant rejeter par toute les filles auxquelles il se déclare.

Après sa rencontre avec Benio Adashino, la meilleure exorciste de l’ouest du Japon, la vie de Rokuro change peu à peu..

Informations episode
Episode : 38
Origine : Japon
Genre : Action
Durée : 00:24:00
Date de sortie : 2016
Année de production : 2016
Titre original : Sousei No Onmyouji

Informations sur l'upload

Qualité : 720p
Format : mp4
Langue : Japonais
Sous-titre : Français
Tailles des fichiers : 1 x 200 Mo
Taille totale : 200 Mo


Heberger sur SeedBox


LIENS DE TÉLÉCHARGEMENT

Télécharger Sousei No Onmyouji 38 VOSTFR 720p URL Raccourcie gratuitement

Cliquez ici pour télécharger la version FRANCAISE



TÉLÉCHARGER Sousei No Onmyouji 38 VOSTFR 720p AVEC USENET (ANONYME&RAPIDE) 14 jours gratuits

↓↓↓ Sousei No Onmyouji 38 VOSTFR 720p ↓↓↓
 
Seeders 72 Leechers 0 Téléchargements 710
 
Télécharger Dire merci! Signaler
Voir la liste des membres qui vous remercient
↑↑↑ Sousei No Onmyouji 38 VOSTFR 720p ↑↑↑

Informations

Nom Sousei No Onmyouji 38 VOSTFR 720p
Torrent Sousei no Onmyouji 38 VOSTFR 720p.mp4.torrent
Catégorie Animation Série
Taille totale 200.07 MB
Info Hash 85cc692fbbfb55c7ecd123e8aace492129c17182
Uploadé par Anonymous
Uploadé le 2017-01-04 14:34:20 (+00:00)
Visites 838
évaluation 5/5 (42 votes)

Liste des Fichiers

Path Size
Sousei no Onmyouji 38 VOSTFR 720p.mp4 200.07 MB

Voir le NFO

General
Complete name                            : Sousei no Onmyouji 38 VOSTFR 720p.mp4
Format                                   : MPEG-4
Format profile                           : Base Media
Codec ID                                 : isom
File size                                : 200 MiB
Duration                                 : 24mn 4s
Overall bit rate mode                    : Variable
Overall bit rate                         : 1 162 Kbps
Encoded date                             : UTC 2017-01-04 12:40:27
Tagged date                              : UTC 2017-01-04 12:40:27

Video
ID                                       : 1
Format                                   : AVC
Format/Info                              : Advanced Video Codec
Format profile                           : [email protected]
Format settings, CABAC                   : Yes
Format settings, ReFrames                : 4 frames
Codec ID                                 : avc1
Codec ID/Info                            : Advanced Video Coding
Duration                                 : 24mn 4s
Bit rate                                 : 1 031 Kbps
Maximum bit rate                         : 3 956 Kbps
Width                                    : 1 280 pixels
Height                                   : 720 pixels
Display aspect ratio                     : 16:9
Frame rate mode                          : Constant
Frame rate                               : 23.976 fps
Color space                              : YUV
Chroma subsampling                       : 4:2:0
Bit depth                                : 8 bits
Scan type                                : Progressive
Bits/(Pixel*Frame)                       : 0.047
Stream size                              : 177 MiB (89%)
Writing library                          : x264 core 148 r2638 7599210
Encoding settings                        : cabac=1 / ref=3 / deblock=1:1:1 / analyse=0x3:0x113 / me=hex / subme=6 / psy=1 / psy_rd=0.40:0.00 / mixed_ref=1 / me_range=16 / chroma_me=1 / trellis=1 / 8x8dct=1 / cqm=0 / deadzone=21,11 / fast_pskip=1 / chroma_qp_offset=-2 / threads=22 / lookahead_threads=3 / sliced_threads=0 / nr=0 / decimate=1 / interlaced=0 / bluray_compat=0 / constrained_intra=0 / bframes=3 / b_pyramid=2 / b_adapt=1 / b_bias=0 / direct=1 / weightb=1 / open_gop=0 / weightp=2 / keyint=240 / keyint_min=22 / scenecut=40 / intra_refresh=0 / rc_lookahead=50 / rc=crf / mbtree=1 / crf=25.0 / qcomp=0.60 / qpmin=0 / qpmax=45 / qpstep=4 / vbv_maxrate=62500 / vbv_bufsize=78125 / crf_max=0.0 / nal_hrd=none / filler=0 / ip_ratio=1.40 / aq=1:1.00
Encoded date                             : UTC 2017-01-04 12:40:27
Tagged date                              : UTC 2017-01-04 12:40:30

Audio
ID                                       : 2
Format                                   : AAC
Format/Info                              : Advanced Audio Codec
Format profile                           : LC
Codec ID                                 : 40
Duration                                 : 24mn 4s
Bit rate mode                            : Variable
Bit rate                                 : 128 Kbps
Maximum bit rate                         : 139 Kbps
Channel(s)                               : 2 channels
Channel positions                        : Front: L R
Sampling rate                            : 44.1 KHz
Compression mode                         : Lossy
Delay relative to video                  : 83ms
Stream size                              : 22.0 MiB (11%)
Tagged date                              : UTC 2017-01-04 12:40:30

Ajouter un commentaire

Daikaeser ↑ 24.36 TB ↓ 9.91 TB Ratio: 2,45

thedarklife741 : faux! l'histoire avec la petite fille n'existe pas dans le manga.

simsoneva ↑ 1.29 TB ↓ 651.36 GB Ratio: 2,03

nickel nickel

grimreaper666 ↑ 712.49 GB ↓ 513.01 GB Ratio: 1,38

Merci pour le partage.

Casier judiciaire vierge pour les élus en politique : Pétition

lechoixdenum ↑ 1.06 TB ↓ 342.41 GB Ratio: 3,16

a votre avis, ils vont en faire un film ?

thedarklife741

Daikaeser : Il ne font pas du HS ils suivent les arcs du mangas.

Daikaeser ↑ 24.36 TB ↓ 9.91 TB Ratio: 2,45

Ils en ont fini avec leur hs?
Je ne comprends pas pourquoi prévoir 51 épisodes (si je ne me trompe pas) si c'était pour faire des hs à partir du 21ème...surtout que le hs avec la petite fille était chiant, ce qu'il fait que je l'ai stoppé.

guepard77 ↑ 7.41 TB ↓ 1.58 TB Ratio: 4,67

merci toujours au top et a l'heure pour l'anime :p

 
Loading...