[VOSTFR] Shadowhunters.S02E02.1080p.NF.WEBRip.DD5.1.x264-ViSUM URL Raccourcie



Shadowhunters
S02E02


VOSTFR WEBRip 1080p







Titre: Shadowhunters
Saison: 02
Episode: 01
Durée: ~42min
Genres: Drame, Fantastique
Nationalité: Américaine
Réalisateurs: Todd Slavkin, Darren Swimmer
Acteurs: Katherine McNamara, Dominic Sherwood, Alberto Rosende
Année de commencement: 2016




Dans le New York contemporain, les humains ne se doutent pas des forces
démoniaques qui s'affrontent sous leurs yeux. Parmi eux, Clary Fray
découvre le jour de ses 18 ans qu'elle n'est pas une adolescente comme
les autres. Dotée de certains pouvoirs qu'elle ne maîtrise pas encore,
la jeune femme est brutalement propulsée vers le côté obscur de notre
monde, dans lequel des Chasseurs d'Ombres combattent des créatures maléfiques.
En s'alliant aux autres Chasseurs, Clary accomplit sa destinée, tout en
allant de révélation en révélation.








Qualité: WEBRip 1080p
Langue: Anglais
Sous-Titres: Français , Anglais , Polonais
Codec Vidéo: x264
Bitrate Vidéo: 8 362 Kbps
Codec Audio: AC3
Bitrate Audio: 640 Kbps
Taille Totale: 2.75 GB

( Sous-Titres Officiels (NETFLiX) )






LIENS DE TÉLÉCHARGEMENT

Télécharger [VOSTFR] Shadowhunters.S02E02.1080p.NF.WEBRip.DD5.1.x264-ViSUM URL Raccourcie gratuitement

Cliquez ici pour télécharger la version FRANCAISE



TÉLÉCHARGER [VOSTFR] Shadowhunters.S02E02.1080p.NF.WEBRip.DD5.1.x264-ViSUM AVEC USENET (ANONYME&RAPIDE) 14 jours gratuits

↓↓↓ [VOSTFR] Shadowhunters.S02E02.1080p.NF.WEBRip.DD5.1.x264-ViSUM ↓↓↓
 
Seeders 5 Leechers 0 Téléchargements 17
 
Télécharger Dire merci! Signaler
Voir la liste des membres qui vous remercient
↑↑↑ [VOSTFR] Shadowhunters.S02E02.1080p.NF.WEBRip.DD5.1.x264-ViSUM ↑↑↑

Informations

Nom [VOSTFR] Shadowhunters.S02E02.1080p.NF.WEBRip.DD5.1.x264-ViSUM
Torrent Shadowhunters.S02E02.1080p.NF.WEBRip.DD5.1.x264-ViSUM.mkv.torrent
Catégorie Série TV
Taille totale 2.75 GB
Info Hash b4b1a0229111379bd7f1d62f7192840f5ca55872
Uploadé par Anonymous
Uploadé le 2017-01-11 18:56:41 (+00:00)
Visites 348
évaluation 0/5 (0 votes)

Liste des Fichiers

Path Size
Shadowhunters.S02E02.1080p.NF.WEBRip.DD5.1.x264-ViSUM.mkv 2.75 GB

Voir le NFO

Shadowhunters.S02E02.1080p.NF.WEBRip.DD5.1.x264-ViSUM.mkv
Format                                   : Matroska
Format version                           : Version 4 / Version 2
File size                                : 2.75 GiB
Duration                                 : 42 min 50 s
Overall bit rate                         : 9 184 kb/s
Encoded date                             : UTC 2017-01-11 16:23:00
Writing application                      : mkvmerge v9.6.0 ('Slave To Your Mind') 64bit
Writing library                          : libebml v1.3.4 + libmatroska v1.4.5
Group                                    : ViSUM

Video
ID                                       : 1
Format                                   : AVC
Format/Info                              : Advanced Video Codec
Format profile                           : [email protected]
Format settings, CABAC                   : Yes
Format settings, ReFrames                : 4 frames
Codec ID                                 : V_MPEG4/ISO/AVC
Duration                                 : 42 min 50 s
Bit rate                                 : 8 362 kb/s
Width                                    : 1 920 pixels
Height                                   : 1 080 pixels
Display aspect ratio                     : 16:9
Frame rate mode                          : Constant
Frame rate                               : 23.976 (24000/1001) FPS
Color space                              : YUV
Chroma subsampling                       : 4:2:0
Bit depth                                : 8 bits
Scan type                                : Progressive
Bits/(Pixel*Frame)                       : 0.168
Stream size                              : 2.50 GiB (91%)
Writing library                          : x264 core 148 r2638 7599210
Encoding settings                        : cabac=1 / ref=4 / deblock=1:-3:-3 / analyse=0x3:0x133 / me=umh / subme=10 / psy=1 / psy_rd=1.00:0.00 / mixed_ref=1 / me_range=48 / chroma_me=1 / trellis=2 / 8x8dct=1 / cqm=0 / deadzone=21,11 / fast_pskip=0 / chroma_qp_offset=-2 / threads=18 / lookahead_threads=2 / sliced_threads=0 / nr=0 / decimate=0 / interlaced=0 / bluray_compat=0 / constrained_intra=0 / bframes=9 / b_pyramid=0 / b_adapt=2 / b_bias=0 / direct=3 / weightb=1 / open_gop=0 / weightp=2 / keyint=240 / keyint_min=23 / scenecut=40 / intra_refresh=0 / rc_lookahead=60 / rc=crf / mbtree=0 / crf=17.0 / qcomp=0.60 / qpmin=10 / qpmax=51 / qpstep=4 / vbv_maxrate=62500 / vbv_bufsize=78125 / crf_max=0.0 / nal_hrd=none / filler=0 / ip_ratio=1.40 / pb_ratio=1.30 / aq=3:0.70
Default                                  : Yes
Forced                                   : No

Audio
ID                                       : 2
Format                                   : AC-3
Format/Info                              : Audio Coding 3
Mode extension                           : CM (complete main)
Format settings, Endianness              : Big
Codec ID                                 : A_AC3
Duration                                 : 42 min 50 s
Bit rate mode                            : Constant
Bit rate                                 : 640 kb/s
Channel(s)                               : 6 channels
Channel positions                        : Front: L C R, Side: L R, LFE
Sampling rate                            : 48.0 kHz
Frame rate                               : 31.250 FPS (1536 spf)
Bit depth                                : 16 bits
Compression mode                         : Lossy
Stream size                              : 196 MiB (7%)
Language                                 : English
Default                                  : Yes
Forced                                   : No

Text #1
ID                                       : 3
Format                                   : UTF-8
Codec ID                                 : S_TEXT/UTF8
Codec ID/Info                            : UTF-8 Plain Text
Language                                 : English
Default                                  : No
Forced                                   : No

Text #2
ID                                       : 4
Format                                   : UTF-8
Codec ID                                 : S_TEXT/UTF8
Codec ID/Info                            : UTF-8 Plain Text
Language                                 : French
Default                                  : No
Forced                                   : No

Text #3
ID                                       : 5
Format                                   : UTF-8
Codec ID                                 : S_TEXT/UTF8
Codec ID/Info                            : UTF-8 Plain Text
Language                                 : Polish
Default                                  : No
Forced                                   : No

Ajouter un commentaire

 
Loading...