[Kaerizaki Fansub] One Piece 771 VOSTFR Version HD URL Raccourcie


(¯`·._.· [Kaerizaki Fansub] One Piece 771 VOSTFR Version HD ·._.·´¯ )





Auteur(s) : ODA EIICHIROU 
Editeur(s) : Konosuke Uda / Munehisa Sakai
Episode(s) : 771
Studio(s) : TôEI ANIMATION 
Genre : AVENTURE / FANTASTIQUE & MYTHE / COMéDIE 
Titre de l'épisode : Un Serment d'hommes !
Luffy et Kozuki Momonosuke !
Date de diffusion : 8 Janvier 2017



Gold Roger est le seigneur des pirates. À sa mort, une grande vague de piraterie s'abat sur le monde. Ces pirates partent à la recherche du One Piece, le fabuleux trésor amassé par Gold Roger durant tout sa vie.
Notre histoire commence dans un petit village dans lequel une bande de pirates réside depuis un an. Monkey D. Luffy, notre héros, est un petit garçon qui rêve de devenir pirate et demande inlassablement à Shanks le Roux, le chef des pirates, de le prendre dans son équipage. Celui-ci refuse évidemment à chaque fois en le tournant en ridicule.
Un jour, Luffy mange par erreur le trésor des pirates qui n'est autre que l'un des fruits du démon, qui ont la réputation de donner des pouvoirs spéciaux. C'est ainsi que Luffy devient un homme élastique. Toutefois, le mangeur d'un fruit du démon se retrouve dans l'incapacité de nager...
Dix ans plus tard, nous retrouvons Luffy qui décide de prendre la mer à la recherche d'un équipage à lui et avec pour objectif de devenir le seigneur des pirates !




Qualité : 1280 x 720 pixels (Version HD)
Format : Mpeg-4
Langue : 
Sous-titre : 
Team : Kaerizaki Fansub
Taille du fichier : 302 MO
Taille total : 302 MO



SVP Restez en seed sur les torrents afin de faire partager à tous les fans. Merci


LIENS DE TÉLÉCHARGEMENT

Télécharger [Kaerizaki Fansub] One Piece 771 VOSTFR Version HD URL Raccourcie gratuitement

Cliquez ici pour télécharger la version FRANCAISE



TÉLÉCHARGER [Kaerizaki Fansub] One Piece 771 VOSTFR Version HD AVEC USENET (ANONYME&RAPIDE) 14 jours gratuits

↓↓↓ [Kaerizaki Fansub] One Piece 771 VOSTFR Version HD ↓↓↓
 
Seeders 508 Leechers 0 Téléchargements 3199
 
Télécharger Dire merci! Signaler
Voir la liste des membres qui vous remercient
↑↑↑ [Kaerizaki Fansub] One Piece 771 VOSTFR Version HD ↑↑↑

Informations

Nom [Kaerizaki Fansub] One Piece 771 VOSTFR Version HD
Torrent [Kaerizaki-Fansub] One Piece 771 VOSTFR HD (1280x720).mp4.torrent
Catégorie Animation Série
Taille totale 302.5 MB
Info Hash e3ed7a8f5199fb1c4347d4be1f3c2aaf4d6e3512
Uploadé par Kaerizaki-Fansub
Uploadé le 2017-01-08 13:42:06 (+00:00)
Visites 3943
évaluation 5/5 (123 votes)

Liste des Fichiers

Path Size
[Kaerizaki-Fansub] One Piece 771 VOSTFR HD (1280x720).mp4 302.5 MB

Voir le NFO

General
Complete name                            : [Kaerizaki-Fansub] One Piece 771 VOSTFR HD (1280x720).mp4
Format                                   : MPEG-4
Format profile                           : Base Media
Codec ID                                 : isom
File size                                : 303 MiB
Duration                                 : 23mn 34s
Overall bit rate mode                    : Variable
Overall bit rate                         : 1 793 Kbps
Encoded date                             : UTC 2017-01-08 13:12:30
Tagged date                              : UTC 2017-01-08 13:12:30

Video
ID                                       : 1
Format                                   : AVC
Format/Info                              : Advanced Video Codec
Format profile                           : [email protected]
Format settings, CABAC                   : Yes
Format settings, ReFrames                : 6 frames
Codec ID                                 : avc1
Codec ID/Info                            : Advanced Video Coding
Duration                                 : 23mn 34s
Bit rate                                 : 1 645 Kbps
Maximum bit rate                         : 8 886 Kbps
Width                                    : 1 280 pixels
Height                                   : 720 pixels
Display aspect ratio                     : 16:9
Frame rate mode                          : Constant
Frame rate                               : 23.976 fps
Color space                              : YUV
Chroma subsampling                       : 4:2:0
Bit depth                                : 8 bits
Scan type                                : Progressive
Bits/(Pixel*Frame)                       : 0.074
Stream size                              : 277 MiB (92%)
Writing library                          : x264 core 148 r2638 7599210
Encoding settings                        : cabac=1 / ref=6 / deblock=1:1:1 / analyse=0x3:0x133 / me=hex / subme=7 / psy=1 / psy_rd=0.60:0.00 / mixed_ref=1 / me_range=16 / chroma_me=1 / trellis=1 / 8x8dct=1 / cqm=0 / deadzone=21,11 / fast_pskip=1 / chroma_qp_offset=-2 / threads=12 / lookahead_threads=2 / sliced_threads=0 / nr=0 / decimate=1 / interlaced=0 / bluray_compat=0 / constrained_intra=0 / bframes=6 / b_pyramid=2 / b_adapt=1 / b_bias=0 / direct=1 / weightb=1 / open_gop=0 / weightp=2 / keyint=240 / keyint_min=23 / scenecut=40 / intra_refresh=0 / rc_lookahead=40 / rc=crf / mbtree=1 / crf=18.5 / qcomp=0.60 / qpmin=10 / qpmax=51 / qpstep=4 / vbv_maxrate=300000 / vbv_bufsize=300000 / crf_max=0.0 / nal_hrd=none / filler=0 / ip_ratio=1.40 / aq=1:1.00
Encoded date                             : UTC 2017-01-08 13:12:30
Tagged date                              : UTC 2017-01-08 13:12:37
Color primaries                          : BT.709-5, BT.1361, IEC 61966-2-4, SMPTE RP177
Transfer characteristics                 : BT.709-5, BT.1361
Matrix coefficients                      : BT.709-5, BT.1361, IEC 61966-2-4 709, SMPTE RP177

Audio
ID                                       : 2
Format                                   : AAC
Format/Info                              : Advanced Audio Codec
Format profile                           : LC
Codec ID                                 : 40
Duration                                 : 23mn 34s
Bit rate mode                            : Variable
Bit rate                                 : 144 Kbps
Maximum bit rate                         : 192 Kbps
Channel(s)                               : 2 channels
Channel positions                        : Front: L R
Sampling rate                            : 44.1 KHz
Compression mode                         : Lossy
Delay relative to video                  : -3s 337ms
Stream size                              : 24.4 MiB (8%)
Language                                 : Japanese
Encoded date                             : UTC 2017-01-08 12:47:44
Tagged date                              : UTC 2017-01-08 13:12:37

Menu
00:00:00.000                             : One Piece Opening
00:02:30.067                             : Intro
00:03:32.045                             : Titre
00:05:08.517                             : One Piece Part 1
00:14:36.126                             : EyeCatch
00:14:50.641                             : One Piece Part 2
00:23:05.093                             : One Piece Preview

Ajouter un commentaire

rainmoon44 ↑ 26.77 GB ↓ 16.56 GB Ratio: 1,61

MERCI INFINIMENT

Kareemc ↑ 206.14 GB ↓ 184.21 GB Ratio: 1,11

Merci beaucoup !

Dernière édition par Kareemc le 2017-01-10 07:55:10

scully38

Merci pour votre boulot je vous souhaite une bonne et heureuse année 2017

3arboush83 ↑ 2.33 TB ↓ 658.35 GB Ratio: 3,63

Nickel un grand MERCI comme dab ! c'est un régale tes upload's. Juste une question qlqun serai pour quand la traduction du film GOLD ??

sniper38130 ↑ 423.22 GB ↓ 222.87 GB Ratio: 1,89

merci , super taff

sniper38130 ↑ 423.22 GB ↓ 222.87 GB Ratio: 1,89

merci , super taff

jkunelee ↑ 11.1 GB ↓ 7.35 GB Ratio: 1,50

tanemirt

sanzo12 ↑ 1.17 TB ↓ 447.01 GB Ratio: 2,66

Impatient de le voir un grand merci pour votre travail bonne soirée a vous

KaezerOfChaos ↑ 470.22 GB ↓ 469.18 GB Ratio: 1,00

Merci Comme toujours parfait !

djangozingou ↑ 101.29 GB ↓ 86.31 GB Ratio: 1,17

Merci bcp

djangozingou ↑ 101.29 GB ↓ 86.31 GB Ratio: 1,17

Merci bcp

kaklido ↑ 2.96 TB ↓ 1.22 TB Ratio: 2,42

Merci pour tout ça, trad' et encodage !

retsukaio ↑ 166.49 GB ↓ 128.78 GB Ratio: 1,29

Merci encore à la team!!

Kaerizaki-Fansub Compte Officiel ↑ 5.91 TB ↓ 62.65 GB Ratio: 96,65

N'hésitez pas à me contacter en cas de problème.
Bon visionnage à tous. ^^


Compte géré par Acool

 
Loading...