[Kaerizaki Fansub] One Piece 769 VOSTFR Version HD URL Raccourcie


(¯`·._.· [Kaerizaki Fansub] One Piece 769 VOSTFR Version HD ·._.·´¯ )





Auteur(s) : ODA EIICHIROU 
Editeur(s) : Konosuke Uda / Munehisa Sakai
Episode(s) : 769
Studio(s) : TôEI ANIMATION 
Genre : AVENTURE / FANTASTIQUE & MYTHE / COMéDIE 
Titre de l'épisode : Une stèle rouge !
Un guide pour le One Piece !
Date de diffusion : 18 Décembre 2016



Gold Roger est le seigneur des pirates. À sa mort, une grande vague de piraterie s'abat sur le monde. Ces pirates partent à la recherche du One Piece, le fabuleux trésor amassé par Gold Roger durant tout sa vie.
Notre histoire commence dans un petit village dans lequel une bande de pirates réside depuis un an. Monkey D. Luffy, notre héros, est un petit garçon qui rêve de devenir pirate et demande inlassablement à Shanks le Roux, le chef des pirates, de le prendre dans son équipage. Celui-ci refuse évidemment à chaque fois en le tournant en ridicule.
Un jour, Luffy mange par erreur le trésor des pirates qui n'est autre que l'un des fruits du démon, qui ont la réputation de donner des pouvoirs spéciaux. C'est ainsi que Luffy devient un homme élastique. Toutefois, le mangeur d'un fruit du démon se retrouve dans l'incapacité de nager...
Dix ans plus tard, nous retrouvons Luffy qui décide de prendre la mer à la recherche d'un équipage à lui et avec pour objectif de devenir le seigneur des pirates !




Qualité : 1280 x 720 pixels (Version HD)
Format : Mpeg-4
Langue : 
Sous-titre : 
Team : Kaerizaki Fansub
Taille du fichier : 362 MO
Taille total : 362 MO



SVP Restez en seed sur les torrents afin de faire partager à tous les fans. Merci


LIENS DE TÉLÉCHARGEMENT

Télécharger [Kaerizaki Fansub] One Piece 769 VOSTFR Version HD URL Raccourcie gratuitement

Cliquez ici pour télécharger la version FRANCAISE



TÉLÉCHARGER [Kaerizaki Fansub] One Piece 769 VOSTFR Version HD AVEC USENET (ANONYME&RAPIDE) 14 jours gratuits

↓↓↓ [Kaerizaki Fansub] One Piece 769 VOSTFR Version HD ↓↓↓
 
Seeders 331 Leechers 0 Téléchargements 4676
 
Télécharger Dire merci! Signaler
Voir la liste des membres qui vous remercient
↑↑↑ [Kaerizaki Fansub] One Piece 769 VOSTFR Version HD ↑↑↑

Informations

Nom [Kaerizaki Fansub] One Piece 769 VOSTFR Version HD
Torrent [Kaerizaki-Fansub] One Piece 769 VOSTFR HD (1280x720).mp4.torrent
Catégorie Animation Série
Taille totale 362.38 MB
Info Hash 1201c16ee0da36c58a734b617d357c010f057853
Uploadé par Kaerizaki-Fansub
Uploadé le 2016-12-18 10:54:06 (+00:00)
Visites 5609
évaluation 4.9/5 (157 votes)

Liste des Fichiers

Path Size
[Kaerizaki-Fansub] One Piece 769 VOSTFR HD (1280x720).mp4 362.38 MB

Voir le NFO

General
Complete name                            : [Kaerizaki-Fansub] One Piece 769 VOSTFR HD (1280x720).mp4
Format                                   : MPEG-4
Format profile                           : Base Media
Codec ID                                 : isom
File size                                : 362 MiB
Duration                                 : 23mn 35s
Overall bit rate mode                    : Variable
Overall bit rate                         : 2 148 Kbps
Encoded date                             : UTC 2016-12-18 10:15:12
Tagged date                              : UTC 2016-12-18 10:15:12

Video
ID                                       : 1
Format                                   : AVC
Format/Info                              : Advanced Video Codec
Format profile                           : [email protected]
Format settings, CABAC                   : Yes
Format settings, ReFrames                : 5 frames
Codec ID                                 : avc1
Codec ID/Info                            : Advanced Video Coding
Duration                                 : 23mn 35s
Bit rate                                 : 2 007 Kbps
Maximum bit rate                         : 15.2 Mbps
Width                                    : 1 280 pixels
Height                                   : 720 pixels
Display aspect ratio                     : 16:9
Frame rate mode                          : Constant
Frame rate                               : 23.976 fps
Color space                              : YUV
Chroma subsampling                       : 4:2:0
Bit depth                                : 8 bits
Scan type                                : Progressive
Bits/(Pixel*Frame)                       : 0.091
Stream size                              : 339 MiB (93%)
Writing library                          : x264 core 148 r2638 7599210
Encoding settings                        : cabac=1 / ref=6 / deblock=1:1:1 / analyse=0x3:0x133 / me=hex / subme=7 / psy=1 / psy_rd=0.60:0.00 / mixed_ref=1 / me_range=16 / chroma_me=1 / trellis=1 / 8x8dct=1 / cqm=0 / deadzone=21,11 / fast_pskip=1 / chroma_qp_offset=-2 / threads=12 / lookahead_threads=2 / sliced_threads=0 / nr=0 / decimate=1 / interlaced=0 / bluray_compat=0 / constrained_intra=0 / bframes=6 / b_pyramid=1 / b_adapt=1 / b_bias=0 / direct=1 / weightb=1 / open_gop=0 / weightp=1 / keyint=240 / keyint_min=23 / scenecut=40 / intra_refresh=0 / rc_lookahead=40 / rc=crf / mbtree=1 / crf=18.5 / qcomp=0.60 / qpmin=10 / qpmax=51 / qpstep=4 / vbv_maxrate=300000 / vbv_bufsize=300000 / crf_max=0.0 / nal_hrd=none / filler=0 / ip_ratio=1.40 / aq=1:1.00
Encoded date                             : UTC 2016-12-18 10:15:12
Tagged date                              : UTC 2016-12-18 10:15:19
Color primaries                          : BT.709-5, BT.1361, IEC 61966-2-4, SMPTE RP177
Transfer characteristics                 : BT.709-5, BT.1361
Matrix coefficients                      : BT.709-5, BT.1361, IEC 61966-2-4 709, SMPTE RP177

Audio
ID                                       : 2
Format                                   : AAC
Format/Info                              : Advanced Audio Codec
Format profile                           : LC
Codec ID                                 : 40
Duration                                 : 23mn 35s
Bit rate mode                            : Variable
Bit rate                                 : 138 Kbps
Maximum bit rate                         : 191 Kbps
Channel(s)                               : 2 channels
Channel positions                        : Front: L R
Sampling rate                            : 44.1 KHz
Compression mode                         : Lossy
Delay relative to video                  : -3s 337ms
Stream size                              : 23.3 MiB (6%)
Language                                 : Japanese
Encoded date                             : UTC 2016-12-18 09:52:33
Tagged date                              : UTC 2016-12-18 10:15:19

Menu
00:00:00.000                             : One Piece Opening
00:02:30.067                             : Intro
00:03:32.045                             : Titre
00:05:24.366                             : One Piece Part 1
00:15:03.153                             : EyeCatch
00:15:17.668                             : One Piece Part 2
00:23:05.177                             : One Piece Preview

Ajouter un commentaire

Pledis ↑ 477.2 GB ↓ 209.4 GB Ratio: 2,27

merci pour votre travail

Pledis ↑ 477.2 GB ↓ 209.4 GB Ratio: 2,27

merci pour votre travail

rainmoon44 ↑ 31.83 GB ↓ 30.89 GB Ratio: 1,03

merci infiniment

jkunelee ↑ 13.04 GB ↓ 13 GB Ratio: 1,00

tanemirt tameqrant

sniper38130 ↑ 546.49 GB ↓ 281.5 GB Ratio: 1,94

MERCI SUPER TAF

djangozingou ↑ 102.33 GB ↓ 88.38 GB Ratio: 1,15

Un grand merci Kaerizaki

retsukaio ↑ 204.11 GB ↓ 176.84 GB Ratio: 1,15

Un grand merci la team

byeda ↑ 1.35 TB ↓ 1.11 TB Ratio: 1,21

Merci comme toujours a la Kaerizaki

khykh ↑ 12.21 TB ↓ 1.35 TB Ratio: 9,01

@Kaerizaki-Fansub , pas de seed ?

EDIT : surement un temps de latence, tout va bien, c'est en seed !

Dernière édition par khykh le 2016-12-18 11:04:33

Kaerizaki-Fansub Compte Officiel ↑ 6.29 TB ↓ 62.72 GB Ratio: 102,75

N'hésitez pas à me contacter en cas de problème.
Bon visionnage à tous. ^^


Compte géré par Acool

 
Loading...