[Kaerizaki Fansub] One Piece 769 VOSTFR Version SD URL Raccourcie


(¯`·._.· [Kaerizaki Fansub] One Piece 769 VOSTFR Version SD ·._.·´¯ )





Auteur(s) : ODA EIICHIROU 
Editeur(s) : Konosuke Uda / Munehisa Sakai
Episode(s) : 769
Studio(s) : TôEI ANIMATION 
Genre : AVENTURE / FANTASTIQUE & MYTHE / COMéDIE 
Titre de l'épisode : Une stèle rouge !
Un guide pour le One Piece !
Date de diffusion : 18 Décembre 2016



Gold Roger est le seigneur des pirates. À sa mort, une grande vague de piraterie s'abat sur le monde. Ces pirates partent à la recherche du One Piece, le fabuleux trésor amassé par Gold Roger durant tout sa vie.
Notre histoire commence dans un petit village dans lequel une bande de pirates réside depuis un an. Monkey D. Luffy, notre héros, est un petit garçon qui rêve de devenir pirate et demande inlassablement à Shanks le Roux, le chef des pirates, de le prendre dans son équipage. Celui-ci refuse évidemment à chaque fois en le tournant en ridicule.
Un jour, Luffy mange par erreur le trésor des pirates qui n'est autre que l'un des fruits du démon, qui ont la réputation de donner des pouvoirs spéciaux. C'est ainsi que Luffy devient un homme élastique. Toutefois, le mangeur d'un fruit du démon se retrouve dans l'incapacité de nager...
Dix ans plus tard, nous retrouvons Luffy qui décide de prendre la mer à la recherche d'un équipage à lui et avec pour objectif de devenir le seigneur des pirates !




Qualité : 854 x 480 pixels (Version SD)
Format : Mpeg-4
Langue : 
Sous-titre : 
Team : Kaerizaki Fansub
Taille du fichier : 216 MO
Taille total : 216 MO



SVP Restez en seed sur les torrents afin de faire partager à tous les fans. Merci


LIENS DE TÉLÉCHARGEMENT

Télécharger [Kaerizaki Fansub] One Piece 769 VOSTFR Version SD URL Raccourcie gratuitement

Cliquez ici pour télécharger la version FRANCAISE



TÉLÉCHARGER [Kaerizaki Fansub] One Piece 769 VOSTFR Version SD AVEC USENET (ANONYME&RAPIDE) 14 jours gratuits

↓↓↓ [Kaerizaki Fansub] One Piece 769 VOSTFR Version SD ↓↓↓
 
Seeders 60 Leechers 0 Téléchargements 903
 
Télécharger Dire merci! Signaler
Voir la liste des membres qui vous remercient
↑↑↑ [Kaerizaki Fansub] One Piece 769 VOSTFR Version SD ↑↑↑

Informations

Nom [Kaerizaki Fansub] One Piece 769 VOSTFR Version SD
Torrent [Kaerizaki-Fansub] One Piece 769 VOSTFR SD (854x480).mp4.torrent
Catégorie Animation Série
Taille totale 216.17 MB
Info Hash 309234a616d646c30846a6b7180f89e82dd4a9dc
Uploadé par Kaerizaki-Fansub
Uploadé le 2016-12-18 11:04:12 (+00:00)
Visites 1092
évaluation 5/5 (27 votes)

Liste des Fichiers

Path Size
[Kaerizaki-Fansub] One Piece 769 VOSTFR SD (854x480).mp4 216.17 MB

Voir le NFO

General
Complete name                            : [Kaerizaki-Fansub] One Piece 769 VOSTFR SD (854x480).mp4
Format                                   : MPEG-4
Format profile                           : Base Media
Codec ID                                 : isom
File size                                : 216 MiB
Duration                                 : 23mn 35s
Overall bit rate mode                    : Variable
Overall bit rate                         : 1 281 Kbps
Encoded date                             : UTC 2016-12-18 10:39:16
Tagged date                              : UTC 2016-12-18 10:39:16

Video
ID                                       : 1
Format                                   : AVC
Format/Info                              : Advanced Video Codec
Format profile                           : [email protected]
Format settings, CABAC                   : Yes
Format settings, ReFrames                : 5 frames
Codec ID                                 : avc1
Codec ID/Info                            : Advanced Video Coding
Duration                                 : 23mn 35s
Bit rate                                 : 1 140 Kbps
Maximum bit rate                         : 10.0 Mbps
Width                                    : 854 pixels
Height                                   : 480 pixels
Display aspect ratio                     : 16:9
Frame rate mode                          : Constant
Frame rate                               : 23.976 fps
Color space                              : YUV
Chroma subsampling                       : 4:2:0
Bit depth                                : 8 bits
Scan type                                : Progressive
Bits/(Pixel*Frame)                       : 0.116
Stream size                              : 192 MiB (89%)
Writing library                          : x264 core 148 r2638 7599210
Encoding settings                        : cabac=1 / ref=6 / deblock=1:1:1 / analyse=0x3:0x133 / me=hex / subme=7 / psy=1 / psy_rd=0.60:0.00 / mixed_ref=1 / me_range=16 / chroma_me=1 / trellis=1 / 8x8dct=1 / cqm=0 / deadzone=21,11 / fast_pskip=1 / chroma_qp_offset=-2 / threads=12 / lookahead_threads=2 / sliced_threads=0 / nr=0 / decimate=1 / interlaced=0 / bluray_compat=0 / constrained_intra=0 / bframes=6 / b_pyramid=1 / b_adapt=1 / b_bias=0 / direct=1 / weightb=1 / open_gop=0 / weightp=1 / keyint=240 / keyint_min=23 / scenecut=40 / intra_refresh=0 / rc_lookahead=40 / rc=crf / mbtree=1 / crf=18.5 / qcomp=0.60 / qpmin=10 / qpmax=51 / qpstep=4 / vbv_maxrate=300000 / vbv_bufsize=300000 / crf_max=0.0 / nal_hrd=none / filler=0 / ip_ratio=1.40 / aq=1:1.00
Encoded date                             : UTC 2016-12-18 10:39:16
Tagged date                              : UTC 2016-12-18 10:39:21
Color primaries                          : BT.709-5, BT.1361, IEC 61966-2-4, SMPTE RP177
Transfer characteristics                 : BT.709-5, BT.1361
Matrix coefficients                      : BT.709-5, BT.1361, IEC 61966-2-4 709, SMPTE RP177

Audio
ID                                       : 2
Format                                   : AAC
Format/Info                              : Advanced Audio Codec
Format profile                           : LC
Codec ID                                 : 40
Duration                                 : 23mn 35s
Bit rate mode                            : Variable
Bit rate                                 : 138 Kbps
Maximum bit rate                         : 191 Kbps
Channel(s)                               : 2 channels
Channel positions                        : Front: L R
Sampling rate                            : 44.1 KHz
Compression mode                         : Lossy
Delay relative to video                  : -3s 337ms
Stream size                              : 23.3 MiB (11%)
Language                                 : Japanese
Encoded date                             : UTC 2016-12-18 10:22:51
Tagged date                              : UTC 2016-12-18 10:39:21

Menu
00:00:00.000                             : One Piece Opening
00:02:30.067                             : Intro
00:03:32.045                             : Titre
00:05:24.366                             : One Piece Part 1
00:15:03.153                             : EyeCatch
00:15:17.668                             : One Piece Part 2
00:23:05.177                             : One Piece Preview

Ajouter un commentaire

haribo75

@Kaerizaki-Fansub d'accord merci pour l'information, bonne continuation à l'équipe.

Kaerizaki-Fansub Compte Officiel ↑ 6.29 TB ↓ 62.72 GB Ratio: 102,75

@haribo75 le bluray sort le 28 décembre 2016 donc il faudra nous laissez quelues semaines apres


Compte géré par Acool

haribo75

Merci à vous pour votre travail.

ps : Qd 'One piece Gold' sera t il disponible svp ?

Kaerizaki-Fansub Compte Officiel ↑ 6.29 TB ↓ 62.72 GB Ratio: 102,75

N'hésitez pas à me contacter en cas de problème.
Bon visionnage à tous. ^^


Compte géré par Acool

 
Loading...