[Kaerizaki Fansub] One Piece 770 VOSTFR Version HD URL Raccourcie


(¯`·._.· [Kaerizaki Fansub] One Piece 770 VOSTFR Version HD ·._.·´¯ )





Auteur(s) : ODA EIICHIROU 
Editeur(s) : Konosuke Uda / Munehisa Sakai
Episode(s) : 770
Studio(s) : TôEI ANIMATION 
Genre : AVENTURE / FANTASTIQUE & MYTHE / COMéDIE 
Titre de l'épisode : Le secret du pays de Wano !
La famille Kozuki et les Ponéglyphes !
Date de diffusion : 25 Décembre 2016



Gold Roger est le seigneur des pirates. À sa mort, une grande vague de piraterie s'abat sur le monde. Ces pirates partent à la recherche du One Piece, le fabuleux trésor amassé par Gold Roger durant tout sa vie.
Notre histoire commence dans un petit village dans lequel une bande de pirates réside depuis un an. Monkey D. Luffy, notre héros, est un petit garçon qui rêve de devenir pirate et demande inlassablement à Shanks le Roux, le chef des pirates, de le prendre dans son équipage. Celui-ci refuse évidemment à chaque fois en le tournant en ridicule.
Un jour, Luffy mange par erreur le trésor des pirates qui n'est autre que l'un des fruits du démon, qui ont la réputation de donner des pouvoirs spéciaux. C'est ainsi que Luffy devient un homme élastique. Toutefois, le mangeur d'un fruit du démon se retrouve dans l'incapacité de nager...
Dix ans plus tard, nous retrouvons Luffy qui décide de prendre la mer à la recherche d'un équipage à lui et avec pour objectif de devenir le seigneur des pirates !




Qualité : 1280 x 720 pixels (Version HD)
Format : Mpeg-4
Langue : 
Sous-titre : 
Team : Kaerizaki Fansub
Taille du fichier : 374 MO
Taille total : 374 MO



SVP Restez en seed sur les torrents afin de faire partager à tous les fans. Merci


LIENS DE TÉLÉCHARGEMENT

Télécharger [Kaerizaki Fansub] One Piece 770 VOSTFR Version HD URL Raccourcie gratuitement

Cliquez ici pour télécharger la version FRANCAISE



TÉLÉCHARGER [Kaerizaki Fansub] One Piece 770 VOSTFR Version HD AVEC USENET (ANONYME&RAPIDE) 14 jours gratuits

↓↓↓ [Kaerizaki Fansub] One Piece 770 VOSTFR Version HD ↓↓↓
 
Seeders 293 Leechers 0 Téléchargements 5051
 
Télécharger Dire merci! Signaler
Voir la liste des membres qui vous remercient
↑↑↑ [Kaerizaki Fansub] One Piece 770 VOSTFR Version HD ↑↑↑

Informations

Nom [Kaerizaki Fansub] One Piece 770 VOSTFR Version HD
Torrent [Kaerizaki-Fansub] One Piece 770 VOSTFR HD (1280x720).mp4.torrent
Catégorie Animation Série
Taille totale 373.98 MB
Info Hash e1673369d28cf53f757b0905a97c0ec6bd8ef012
Uploadé par Kaerizaki-Fansub
Uploadé le 2016-12-25 08:56:17 (+00:00)
Visites 5968
évaluation 4.9/5 (176 votes)

Liste des Fichiers

Path Size
[Kaerizaki-Fansub] One Piece 770 VOSTFR HD (1280x720).mp4 373.98 MB

Voir le NFO

General
Complete name                            : [Kaerizaki-Fansub] One Piece 770 VOSTFR HD (1280x720).mp4
Format                                   : MPEG-4
Format profile                           : Base Media
Codec ID                                 : isom
File size                                : 374 MiB
Duration                                 : 23mn 34s
Overall bit rate mode                    : Variable
Overall bit rate                         : 2 217 Kbps
Encoded date                             : UTC 2016-12-25 07:39:40
Tagged date                              : UTC 2016-12-25 07:39:40

Video
ID                                       : 1
Format                                   : AVC
Format/Info                              : Advanced Video Codec
Format profile                           : [email protected]
Format settings, CABAC                   : Yes
Format settings, ReFrames                : 5 frames
Codec ID                                 : avc1
Codec ID/Info                            : Advanced Video Coding
Duration                                 : 23mn 34s
Bit rate                                 : 2 071 Kbps
Maximum bit rate                         : 14.7 Mbps
Width                                    : 1 280 pixels
Height                                   : 720 pixels
Display aspect ratio                     : 16:9
Frame rate mode                          : Constant
Frame rate                               : 23.976 fps
Color space                              : YUV
Chroma subsampling                       : 4:2:0
Bit depth                                : 8 bits
Scan type                                : Progressive
Bits/(Pixel*Frame)                       : 0.094
Stream size                              : 349 MiB (93%)
Writing library                          : x264 core 148 r2638 7599210
Encoding settings                        : cabac=1 / ref=6 / deblock=1:1:1 / analyse=0x3:0x133 / me=hex / subme=7 / psy=1 / psy_rd=0.60:0.00 / mixed_ref=1 / me_range=16 / chroma_me=1 / trellis=1 / 8x8dct=1 / cqm=0 / deadzone=21,11 / fast_pskip=1 / chroma_qp_offset=-2 / threads=12 / lookahead_threads=2 / sliced_threads=0 / nr=0 / decimate=1 / interlaced=0 / bluray_compat=0 / constrained_intra=0 / bframes=6 / b_pyramid=1 / b_adapt=1 / b_bias=0 / direct=1 / weightb=1 / open_gop=0 / weightp=1 / keyint=240 / keyint_min=23 / scenecut=40 / intra_refresh=0 / rc_lookahead=40 / rc=crf / mbtree=1 / crf=18.5 / qcomp=0.60 / qpmin=10 / qpmax=51 / qpstep=4 / vbv_maxrate=300000 / vbv_bufsize=300000 / crf_max=0.0 / nal_hrd=none / filler=0 / ip_ratio=1.40 / aq=1:1.00
Encoded date                             : UTC 2016-12-25 07:39:40
Tagged date                              : UTC 2016-12-25 07:39:50
Color primaries                          : BT.709-5, BT.1361, IEC 61966-2-4, SMPTE RP177
Transfer characteristics                 : BT.709-5, BT.1361
Matrix coefficients                      : BT.709-5, BT.1361, IEC 61966-2-4 709, SMPTE RP177

Audio
ID                                       : 2
Format                                   : AAC
Format/Info                              : Advanced Audio Codec
Format profile                           : LC
Codec ID                                 : 40
Duration                                 : 23mn 34s
Bit rate mode                            : Variable
Bit rate                                 : 144 Kbps
Maximum bit rate                         : 202 Kbps
Channel(s)                               : 2 channels
Channel positions                        : Front: L R
Sampling rate                            : 44.1 KHz
Compression mode                         : Lossy
Delay relative to video                  : -3s 337ms
Stream size                              : 24.1 MiB (6%)
Language                                 : Japanese
Encoded date                             : UTC 2016-12-25 07:17:54
Tagged date                              : UTC 2016-12-25 07:39:50

Menu
00:00:00.000                             : One Piece Opening
00:02:30.067                             : Intro
00:03:32.045                             : Titre
00:04:31.104                             : One Piece Part 1
00:15:33.058                             : EyeCatch
00:15:47.573                             : One Piece Part 2
00:23:05.052                             : One Piece Preview

Ajouter un commentaire

jkunelee ↑ 13.76 GB ↓ 13.7 GB Ratio: 1,00

tanemirt

rainmoon44 ↑ 126.85 GB ↓ 41.96 GB Ratio: 3,02

merci beaucoup

LolaKuchiki ↑ 227.91 GB ↓ 92.99 GB Ratio: 2,45

l'épisode 771 !!!!!!!!!!!!!!!!!!!!!!!!!!!!

LolaKuchiki ↑ 227.91 GB ↓ 92.99 GB Ratio: 2,45

l'épisode 771 !!!!!!!!!!!!!!!!!!!!!!!!!!!!

Pledis ↑ 477.2 GB ↓ 212.14 GB Ratio: 2,24

un tout grand merci sans vous je serai pas où les suivres

jkunelee ↑ 13.76 GB ↓ 13.7 GB Ratio: 1,00

tanemirt tameqrant

djangozingou ↑ 103.39 GB ↓ 93.84 GB Ratio: 1,10

Merci pour l'épisode

scar3002 ↑ 262.25 GB ↓ 215.16 GB Ratio: 1,21

Merci... pour le super taf tout les dimanches... bonne fête à la team....

scully38

Merci pour l'épisode et tout le travail et la joie que vous nous avez apporter avec One Piece joyeuse fêtes

MisterYvick ↑ 479.48 GB ↓ 136.46 GB Ratio: 3,51

merci bonne fêtes a tous

Totsuka ↑ 1.18 TB ↓ 534.02 GB Ratio: 2,26

Merci et joyeux noël à toute et à tous

retsukaio ↑ 227.47 GB ↓ 198.86 GB Ratio: 1,14

Merci à la team et joyeux Noel

wowy

Ya kho merci infiniment !

raikage35 ↑ 4.06 TB ↓ 1.81 TB Ratio: 2,24

joyeux noel les amis et merci à kaerizaki pour son travail régulier!!

niavlys80 ↑ 982.43 GB ↓ 724.65 GB Ratio: 1,35

Merci et joyeux noel !!

Kaerizaki-Fansub Compte Officiel ↑ 6.52 TB ↓ 66.09 GB Ratio: 101,09

N'hésitez pas à me contacter en cas de problème.
Bon visionnage à tous. ^^


Compte géré par Acool

 
Loading...